» Poradna » Mobily, audio, video

Soubor *.MOV nejede zvuk

 |   |  Microsoft Windows 7 Chrome 66.0.3359.139

Ahoj, mám prosbu, mám několik videí natočených fotoaparátem Olympus PL6 je to formát MOV. Nyní jsem zjistil že některé video z listopadu 2016 mi jede beze zvuku. Ostatní videa zvuk mají. Lze zjistit, zda je soubor poškozený, a proto nejede zvuk, nebo tam zvuk vůbec není. Nikdy jsem nevypínal, že bych nahrál video bez zvuku, a video jsem kdysi shlédl a zvuk mělo. Na PC se nic nezměnilo, navíc ostatní vida stejného formátu a ze stejného fotoaparátu mi jedou se zvukem. Prosím o vyzkoušení, zda video jede i se zvukem, příp. info zda vůbec zvuk obsahuje. Děkuji moc.Odkaz na video (36 MB).https://uloz.to/!sc9oCnBMM0cR/prvni-krucky-mov

Odpovědi na otázku

avatar
 | Linux Firefox 60.0

zda tam zvuk je nebo není ti řekne MediaInfo:GeneralComplete name : První krůčky.MOVFormat : MPEG-4Format profile : QuickTimeCodec ID : qt 2011.07 (qt )File size : 34.7 MiBDuration : 19 s 520 msOverall bit rate mode : VariableOverall bit rate : 14.9 Mb/sEncoded date : UTC 2016-12-09 09:08:06Tagged date : UTC 2016-12-09 09:08:06TAGS : 8"RVideoID : 1Format : AVCFormat/Info : Advanced Video CodecFormat profile : High@L4.1Format settings, CABAC : NoFormat settings, RefFrames : 1 frameFormat settings, GOP : M=1, N=15Codec ID : avc1Codec ID/Info : Advanced Video CodingDuration : 19 s 520 msBit rate mode : VariableBit rate : 13.2 Mb/sMaximum bit rate : 20.5 Mb/sWidth : 1 920 pixelsHeight : 1 080 pixelsDisplay aspect ratio : 16:9Frame rate mode : ConstantFrame rate : 29.970 (30000/1001) FPSColor space : YUVChroma subsampling : 4:2:0Bit depth : 8 bitsScan type : ProgressiveBits/(Pixel*Frame) : 0.212Stream size : 30.7 MiB (89%)Language : JapaneseEncoded date : UTC 2016-12-09 09:08:06Tagged date : UTC 2016-12-09 09:08:06Color range : FullColor primaries : BT.601 NTSCTransfer characteristics : BT.601Matrix coefficients : BT.601AudioID : 2Format : PCMFormat settings, Endianness : LittleFormat settings, Sign : SignedCodec ID : sowtDuration : 19 s 520 msSource duration : 19 s 520 msBit rate mode : ConstantBit rate : 1 536 kb/sChannel(s) : 2 channelsChannel positions : Front: L RSampling rate : 48.0 kHzBit depth : 16 bitsStream size : 3.57 MiB (10%)Source stream size : 3.57 MiB (10%)Language : JapaneseEncoded date : UTC 2016-12-09 09:08:06Tagged date : UTC 2016-12-09 09:08:06Zvuk tam údajně je, ale nehraje mi nic ani ve VLC ani v SMPlayeru. Aktuálně natočená videa zvuk mají? Jestli třeba neodešel mikrofon...

Souhlasím  |  Nesouhlasím  |  Odpovědět
 |   |  Microsoft Windows 7 Chrome 66.0.3359.139

Děkuji, ano, mám stále stejný foťák a ostatní videa zvuk mají.

Souhlasím  |  Nesouhlasím  |  Odpovědět
 |   |  Linux Chrome 53.0.2785.116

Zvuk tam je, ale obsahuje pouze "ticho"......

Souhlasím  |  Nesouhlasím  |  Odpovědět
 |   |  Microsoft Windows 7 Chrome 66.0.3359.139

Děkuji za vyzkoušení a za reakci. Asi se prostě smířím s tím, že video bude bez zvuku. Tady asi jde spíše o obraz, jen jsem objevil, že ten zvuk nejde asi u dalších 3 videí natočených přibližně ve stejném časovém období několika dnů. Tak je otázka, zda se tedy nenatočila videa bez zvuku už tenkrát, ale byl jsem si jistý, že tam ten zvuk byl.

Souhlasím  |  Nesouhlasím  |  Odpovědět
 |   |  Microsoft Windows 7 Chrome 66.0.3359.139

Ještě jsem se díval na ta ostatní videa a jsem si 100% jistý, že tam zvuk byl.

Souhlasím  |  Nesouhlasím  |  Odpovědět
 | Android Chrome 34.0

Tak se podiv (hex) na normální audio a na tvoje. Ty tam máš akorát tak samé nuly.

Souhlasím  |  Nesouhlasím  |  Odpovědět
avatar
 | Microsoft Windows 7 Chrome 59.0.3071.90

ještě mne napadá jedna věc - stahuješ videa z foťáku přes kartu ve čtečce? Nepoužíváš k tomu nějaký olympusácký software? Zvuk u toho samého videa ve foťáku hraje?Pokud bys to stahoval nějakým softem, tak bych to zkusil vzít rovnou přes čtečku, protože SW to nemusí stáhnout korektně.

Souhlasím  |  Nesouhlasím  |  Odpovědět
 |   |  Microsoft Windows 7 Chrome 66.0.3359.139

To video jsem stáhl před dvěma lety do PC. Zvuk tam tenkrát jel. Stáhl jsem to normálně, bez žádného softwaru, jako bych připojil flashku k PC. Video jsem přejmenoval. A nyní jsem zjistil, že nejde zvuk. Nevím čím se to mohlo poškodit, nebo co se stalo.

Souhlasím  |  Nesouhlasím  |  Odpovědět
 |   |  Microsoft Windows 10 Firefox 58.0

Neotvaral si ho v nejakom video editore? Je prakticky nemozne aby sa poskodil iba zvuk, len tak. Pokial si to upravoval, strihal - aj ked len koniec, sekundu, tak pri ukladani mohol program ulozit zvukovu stopu nespravne, ak to je original, je to prakticky nemozne.

Souhlasím  |  Nesouhlasím  |  Odpovědět
 |   |  Microsoft Windows 7 Chrome 66.0.3359.181

Ne, to jsem nedělal, jen jsem to přejmenoval.

Souhlasím  |  Nesouhlasím  |  Odpovědět




Určitě si přečtěte

Američtí mariňáci si tisknou kasárna z betonu na 3D tiskárně

Američtí mariňáci si tisknou kasárna z betonu na 3D tiskárně

** Americká námořní pěchota nedávno představila 3D tištěná kasárna pro vojáky ** Ty jim tiskne velká 3D tiskárna na beton ** Výsledkem je solidní obytný prostor, který je slušně chráněný před nepřátelskou palbou

Stanislav Mihulka | 18

Portál občana už funguje. Na státní web vypadá až překvapivě použitelně

Portál občana už funguje. Na státní web vypadá až překvapivě použitelně

** Portál občana už funguje, vyřídíte na něm první požadavky ** Funkce se budou postupně rozšiřovat ** Web je docela moderní a přehledný

David Polesný | 66

Google Cloud Next: Blíží se bitva o to, kdo ovládne cloud, tedy internet zítřka

Google Cloud Next: Blíží se bitva o to, kdo ovládne cloud, tedy internet zítřka

** Google v týdnu ukázal nové telefony Pixel ** V Londýně se ale také konal Google Cloud Next ** Konference o tom, jak bude vypadat internet v cloudu zítra

Jakub Čížek | 31

Čtyřicet procent je moc. Spalovací motory nedokážou splnit požadavek EU na snížení emisí

Čtyřicet procent je moc. Spalovací motory nedokážou splnit požadavek EU na snížení emisí

** EP nařídil automobilkám snížit o 40 % emise CO2 ** EU chce zvýšit podíl elektromobilů ** Výrobci hrozí ztrátou pracovních míst

Karel Kilián | 254


Aktuální číslo časopisu Computer

Jak vytvořit a spravovat vlastní web

Velký test herních klávesnic a DVB-T2 tunerů

Vše o formátu RAW

Vybíráme nejlepší základní desku