» Poradna » Mobily, audio, video

Bezztrátová extrakce AC-3 z videosouboru do použitelného formátu pro OS Android

 |   |  Microsoft Windows 10 Chrome 79.0.3945.88

Mám následující soubor níže - jedná se o jeden .VOB soubor z DVD. Potřeboval bych z něho nějakou cestou vyextrahovat audio BEZZTRÁTOVĚ (vykopírovat audiostopu, která je ve videu uložena o velikosti 1,80 MB) v použitelném formátu, který mi přehraje hudební přehrávač na Android telefonu [aplikace Poweramp - podporuje: mp3, mp4/m4a/alac/aac, ogg, wma, flac, wav, ape, wv, tta, mpc, aiff, opus, dsd (dff/dsf), mka, tak, flv (audio) ]. Zatím jsem při hraní s tímto programem https://www.xmedia-recode.de/en/index.php zjistil, že mohu vykopírovat bezztrátově audiostopu do souboru s příponou .ac3 a .mp4 , ale to mě bohužel nebere žádná z aplikaci na Androidu (VLC na WIN bez problému zvuk přehraje v obou formátech).Pokud je to nemožné, co by jste mi doporučili za ztrátovou kompresi:- WAV (DTS, PCM16, PCM24,... ?)- FLAC ( 16/24 bit, úroveň 0-12 ?)- OGG (Vorbis, Opus, Speex ?)- nebo do úplně něčeho jiného? Prioritnější je pro mne maximální možná kvalita než velikost souboru. Zas na druhou stranu, nechci zbytečně udělat z čisté audiostopy o velikosti 1,8 MB soubor o velikosti 100 MB. BTW - pokud DVD obsahuje soubor se streamem DTS, to mohu jednoduše překopírovat bezztrátově do .WAV a Poweramp přehrávač mi to na Androidu bez problému přehraje, ale toto bohužel není tento případ . INFORMACE O SOUBORUGeneralComplete name : H:\VIDEO_TS\VTS_01_1.VOBFormat : MPEG-PSFile size : 16.3 MiBDuration : 33 s 800 msOverall bit rate mode : VariableOverall bit rate : 4 033 kb/sVideoID : 224 (0xE0)Format  Ukázat celý příspěvek

Odpovědi na otázku

avatar
 | Linux Firefox 71.0

zkus ten videosoubor přímo načíst v Audacity - jestli se povede, ulož prostě zvuk ve formátu WAV a bude to bez ztráty kvality.

Souhlasím  |  Nesouhlasím  |  Odpovědět
 |   |  Microsoft Windows 10 Chrome 79.0.3945.88

Načíst se podařilo, uložil jsem první volbou - "WAV (Microsoft) 16bit PCM" - a vytvořil se mi soubor o velikosti 6,19 MB (o 2/3 nárůst velikosti). Je nějaké vysvětlení proč, když je to bezztrátový (opravdu??) naroste tolik velikost souboru?

Souhlasím  |  Nesouhlasím  |  Odpovědět
avatar
 | Linux Firefox 71.0

tak WAV není zrovna efektivní co do velikosti dat.Můžeš si to převést na FLAC, ten bude menší a kvalita by taky dolů jít neměla. Ale nevím, zda to umí Audacity rovnou, nikdy jsem to nepotřeboval.

Souhlasím  |  Nesouhlasím  |  Odpovědět
 |   |  Microsoft Windows 10 Chrome 79.0.3945.88

Šlo to dolů hezky, ale ještě je tam drobná "vatička". GeneralComplete name : C:\Users\ladab\Desktop\VTS_01_1.flacFormat : FLACFormat/Info : Free Lossless Audio CodecFile size : 2.18 MiBDuration : 33 s 824 msOverall bit rate mode : VariableOverall bit rate : 541 kb/sAudioFormat : FLACFormat/Info : Free Lossless Audio CodecDuration : 33 s 824 msBit rate mode : VariableBit rate : 541 kb/sChannel(s) : 2 channelsChannel positions : Front: L RSampling rate : 48.0 kHzBit depth : 16 bitsStream size : 2.18 MiB (100%)Writing library : libFLAC 1.3.1 (UTC 2014-11-25)

Souhlasím  |  Nesouhlasím  |  Odpovědět
 |   |  Microsoft Windows 10 Chrome 79.0.3945.88

AC3 je ztratove komprimovany, WAV je bezztratovy nekomprimovany, tudiz je logicky vetsi. FLAC je bezztratove komprimovany (jako treba ZIP).

Souhlasím  |  Nesouhlasím  |  Odpovědět
 |   |  Microsoft Windows 10 Chrome 79.0.3945.88

Vytvořilo mi to toto audio: GeneralComplete name : C:\Users\ladab\Desktop\VTS_01_1.wavFormat : WaveFile size : 6.19 MiBDuration : 33 s 824 msOverall bit rate mode : ConstantOverall bit rate : 1 536 kb/sAudioFormat : PCMFormat settings : Little / SignedCodec ID : 1Duration : 33 s 824 msBit rate mode : ConstantBit rate : 1 536 kb/sChannel(s) : 2 channelsSampling rate : 48.0 kHzBit depth : 16 bitsStream size : 6.19 MiB (100%)

Souhlasím  |  Nesouhlasím  |  Odpovědět
 |   |  Linux Chrome 60.0.3112.90

Tvl, to se jako jedná o tak "superkvalitní" záznam, že (ty zrovna - cha cha) poznáš rozdíl mezi původním .ac3 a (z něho udělaným) .wav/.flac ?? To snad ne....

Souhlasím  |  Nesouhlasím  |  Odpovědět

Související témata: OS Android, Rate, Boháč, Format, Extrakce, Frame, Settings, BITS, Opus, Depth, Maximální možná, Hudební přehrávač, Ogg Vorbis, Chroma, Pictures


Určitě si přečtěte

Za hranicemi Chromu: 13 nejzajímavějších prohlížečů, které „nikdo“ nepoužívá

Za hranicemi Chromu: 13 nejzajímavějších prohlížečů, které „nikdo“ nepoužívá

** Šesti nejpoužívanějším prohlížečům patří 94 % trhu ** Různé „klony“ Chromu slibují lepší funkce nebo jiný design ** Také Firefox má řadu zajímavých odnoží

Lukáš Václavík | 38

Podívejte se na Windows z roku 1990. Před 30 lety přišly Windows 3.0 a líbily se nám

Podívejte se na Windows z roku 1990. Před 30 lety přišly Windows 3.0 a líbily se nám

** 22. května 1990 uvedl Microsoft Windows 3.0 ** Systém z Microsoftu definitivně udělal lídra na desktopu ** Tehdejší Windows byly vlastně grafickou nadstavbou nad MS-DOS

Jakub Čížek | 76

Apple vychrlil novinky: Nové operační systémy a příprava na vlastní procesory

Apple vychrlil novinky: Nové operační systémy a příprava na vlastní procesory

** Apple dnes představuje novinky ** Tradiční keynote v rámci konference WWDC probíhá jen online ** Nové operační systémy, ale i něco navíc

David Polesný | 108

Teachable Machine: Umělá inteligence za pět minut i bez doktorátu z ČVUT

Teachable Machine: Umělá inteligence za pět minut i bez doktorátu z ČVUT

** Pochopit techniky a principy A.I. je složité ** Ale nebojte, jde to i bez doktorátu z IT a matematiky ** Vyzkoušíme generátor neuronových sítí od Googlu

Jakub Čížek | 10

Windy je laboratoř na počasí: 12 tipů, jak se ve službě vyznat a využít ji naplno

Windy je laboratoř na počasí: 12 tipů, jak se ve službě vyznat a využít ji naplno

** Předpověď počasí Windy nabízí nepřebernou škálu funkcí ** Zorientovat se v nich nemusí být vždy snadné ** Proto přinášíme 12 užitečných tipů a triků

Karel Kilián | 9


Aktuální číslo časopisu Computer

Megatest SSD s kapacitou 1 TB

Srovnávací test robotických vysavačů

Vybíráme nejlepší telefony na trhu

Jak zlepšit zvuk televize